<?xml version="1.0" standalone="no"?>
<!DOCTYPE svg PUBLIC "-//W3C//DTD SVG 1.1//EN" "http://www.w3.org/Graphics/SVG/1.1/DTD/svg11.dtd" >
<svg xmlns="http://www.w3.org/2000/svg">
<metadata>Generated by IcoMoon</metadata>
<defs>
<font id="tmg-icons" horiz-adv-x="1024">
<font-face units-per-em="1024" ascent="960" descent="-64" />
<missing-glyph horiz-adv-x="1024" />
<glyph unicode="&#x20;" horiz-adv-x="512" d="" />
<glyph unicode="&#xe900;" glyph-name="arrow-down" d="M558.080-48.64l424.96 399.36c25.6 20.48 30.72 66.56 0 87.040-20.48 30.72-66.56 30.72-87.040 0l-312.32-291.84v737.28c0 35.84-30.72 66.56-66.56 66.56s-66.56-30.72-66.56-66.56v-737.28l-312.32 291.84c-25.6 30.72-71.68 30.72-87.040 0-25.6-20.48-30.72-71.68 0-87.040l424.96-399.36c5.12-25.6 51.2-35.84 81.92 0z" />
<glyph unicode="&#xe901;" glyph-name="arrow-left" d="M20.48 396.8l399.36-424.96c20.48-25.6 66.56-30.72 87.040 0 30.72 20.48 30.72 66.56 0 87.040l-291.84 312.32h737.28c35.84 0 66.56 30.72 66.56 66.56s-30.72 66.56-66.56 66.56h-732.16l291.84 312.32c30.72 25.6 30.72 71.68 0 87.040-20.48 25.6-71.68 30.72-87.040 0l-399.36-424.96c-25.6-10.24-40.96-56.32-5.12-81.92z" />
<glyph unicode="&#xe902;" glyph-name="arrow-right" d="M1003.52 483.84l-404.48 424.96c-20.48 25.6-66.56 30.72-87.040 0-30.72-20.48-30.72-66.56 0-87.040l291.84-312.32h-737.28c-35.84 0-66.56-30.72-66.56-66.56s30.72-66.56 66.56-66.56h737.28l-291.84-317.44c-30.72-25.6-30.72-71.68 0-87.040 20.48-25.6 71.68-30.72 87.040 0l399.36 424.96c25.6 15.36 40.96 61.44 5.12 87.040z" />
<glyph unicode="&#xe903;" glyph-name="arrow-up" d="M465.92 929.28l-424.96-399.36c-25.6-20.48-30.72-66.56 0-87.040 20.48-30.72 66.56-30.72 87.040 0l312.32 291.84v-737.28c0-35.84 30.72-66.56 66.56-66.56s66.56 30.72 66.56 66.56v732.16l312.32-291.84c25.6-30.72 71.68-30.72 87.040 0 25.6 20.48 30.72 71.68 0 87.040l-424.96 399.36c-5.12 25.6-51.2 40.96-81.92 5.12z" />
<glyph unicode="&#xe904;" glyph-name="chevron-down" d="M906.24 780.8l-394.24-389.12-394.24 389.12-117.76-117.76 512-512 512 512z" />
<glyph unicode="&#xe905;" glyph-name="chevron-left" d="M829.44 74.24l-394.24 394.24 394.24 389.12-122.88 122.88-512-512 512-512z" />
<glyph unicode="&#xe906;" glyph-name="chevron-right" d="M194.56 857.6l394.24-389.12-394.24-394.24 122.88-117.76 512 512-512 512z" />
<glyph unicode="&#xe907;" glyph-name="chevron-up" d="M117.76 151.040l394.24 389.12 394.24-389.12 117.76 117.76-512 512-512-512z" />
<glyph unicode="&#xe908;" glyph-name="close" d="M1034.24 857.6l-409.6-409.6 409.6-409.6-102.4-102.4-409.6 409.6-409.6-409.6-102.4 102.4 409.6 409.6-409.6 409.6 102.4 102.4 409.6-409.6 409.6 409.6 102.4-102.4z" />
<glyph unicode="&#xe909;" glyph-name="home" d="M1003.52 514.56l-460.8 450.56c-20.48 20.48-46.080 20.48-66.56 0l-460.8-450.56c-15.36-15.36-15.36-35.84-10.24-51.2s25.6-30.72 46.080-30.72h112.64v-440.32c0-20.48 15.36-35.84 35.84-35.84h614.4c20.48 0 35.84 15.36 35.84 35.84v440.32h122.88c20.48 0 35.84 10.24 46.080 30.72s0 35.84-15.36 51.2z" />
<glyph unicode="&#xe90a;" glyph-name="phone" d="M317.44 862.72c20.48-20.48 46.080-46.080 66.56-66.56 40.96-40.96 40.96-81.92 0-122.88-25.6-25.6-56.32-56.32-81.92-81.92-5.12-5.12-10.24-15.36-5.12-20.48 20.48-46.080 46.080-81.92 76.8-122.88 61.44-71.68 128-138.24 209.92-189.44 15.36-10.24 35.84-20.48 56.32-30.72 10.24-5.12 15.36-5.12 25.6 5.12 25.6 30.72 56.32 56.32 81.92 81.92 35.84 35.84 81.92 35.84 117.76 0 46.080-46.080 92.16-92.16 133.12-133.12 35.84-35.84 35.84-81.92 0-122.88-25.6-25.6-51.2-51.2-76.8-76.8-35.84-40.96-76.8-51.2-128-51.2-71.68 5.12-138.24 30.72-204.8 61.44-143.36 71.68-266.24 168.96-373.76 291.84-76.8 92.16-138.24 189.44-179.2 302.080-20.48 56.32-35.84 107.52-30.72 168.96 5.12 35.84 15.36 66.56 40.96 92.16 30.72 25.6 56.32 56.32 81.92 81.92 35.84 35.84 81.92 35.84 117.76 0 25.6-20.48 46.080-40.96 71.68-66.56z" />
<glyph unicode="&#xe90b;" glyph-name="play" d="M512 960c281.6 0 512-230.4 512-512s-230.4-512-512-512-512 230.4-512 512 230.4 512 512 512zM450.56 540.16v-209.92l148.48 107.52-148.48 102.4z" />
<glyph unicode="&#xe90c;" glyph-name="search" d="M977.92 43.52l-184.32 184.32c71.68 76.8 112.64 179.2 112.64 291.84 0 240.64-199.68 440.32-440.32 440.32s-440.32-199.68-440.32-440.32 199.68-440.32 440.32-440.32c87.040 0 163.84 25.6 235.52 66.56l194.56-194.56c10.24-10.24 25.6-15.36 40.96-15.36s30.72 5.12 40.96 15.36c25.6 30.72 25.6 66.56 0 92.16zM148.48 519.68c0 174.080 143.36 317.44 317.44 317.44s317.44-143.36 317.44-317.44-143.36-317.44-317.44-317.44-317.44 143.36-317.44 317.44z" />
<glyph unicode="&#xe90d;" glyph-name="tick" d="M133.12 437.76c-25.6 30.72-76.8 35.84-107.52 10.24s-35.84-76.8-10.24-107.52l199.68-235.52c25.6-30.72 76.8-35.84 107.52-10.24l5.12 5.12 670.72 624.64c30.72 30.72 30.72 76.8 5.12 107.52-30.72 30.72-76.8 30.72-107.52 5.12l-614.4-573.44-148.48 174.080z" />
<glyph unicode="&#xe90e;" glyph-name="star" d="M819.2-33.28c15.36 10.24 25.6 35.84 20.48 56.32l-51.2 286.72 209.92 204.8c15.36 15.36 20.48 35.84 15.36 56.32s-25.6 35.84-46.080 35.84l-286.72 40.96-128 261.12c-10.24 20.48-30.72 30.72-51.2 30.72s-40.96-10.24-51.2-30.72l-128-261.12-286.72-40.96c-20.48-5.12-35.84-15.36-46.080-35.84-5.12-20.48 0-40.96 15.36-56.32l209.92-204.8-46.080-286.72c-5.12-20.48 5.12-40.96 20.48-51.2s40.96-15.36 56.32-5.12l256 133.12 256-133.12c20.48-15.36 40.96-15.36 61.44 0z" />
<glyph unicode="&#xe90f;" glyph-name="email" horiz-adv-x="1485" d="M1408 960h-1331.2c-35.84 0-66.56-30.72-66.56-66.56v-890.88c0-35.84 30.72-66.56 66.56-66.56h1336.32c35.84 0 66.56 30.72 66.56 66.56v890.88c-5.12 35.84-35.84 66.56-71.68 66.56zM762.88 391.68c-15.36-15.36-35.84-15.36-46.080 0l-481.28 440.32h1018.88l-491.52-440.32zM450.56 468.48l-312.32-312.32v599.040l312.32-286.72zM542.72 381.44l97.28-87.040c30.72-30.72 71.68-35.84 107.52-35.84s71.68 15.36 107.52 35.84l97.28 87.040 322.56-322.56h-1054.72l322.56 322.56zM1034.24 468.48l312.32 286.72v-599.040l-312.32 312.32z" />
<glyph unicode="&#xe910;" glyph-name="email-send" horiz-adv-x="2150" d="M2068.48 960c30.72 0 61.44-30.72 61.44-61.44v0-896c0-30.72-30.72-61.44-61.44-61.44v0h-1341.44c-30.72 0-61.44 30.72-61.44 61.44v0 890.88c0 30.72 30.72 61.44 61.44 61.44v0h1341.44zM1607.68 386.56l-97.28-81.92c-30.72-30.72-71.68-40.96-107.52-40.96-30.72 0-81.92 10.24-107.52 40.96v0l-97.28 81.92-317.44-327.68h1064.96l-337.92 327.68zM517.12 258.56c40.96 0 71.68-30.72 71.68-61.44s-30.72-61.44-71.68-61.44v0h-307.2c-40.96 0-71.68 30.72-71.68 61.44s30.72 61.44 71.68 61.44v0h307.2zM793.6 755.2v-604.16l317.44 317.44-317.44 286.72zM2007.040 755.2l-317.44-281.6 317.44-317.44v599.040zM1909.76 842.24h-1024l486.4-445.44c10.24-10.24 30.72-10.24 51.2 0v0l486.4 445.44zM465.92 514.56c30.72 0 61.44-30.72 61.44-61.44s-30.72-61.44-61.44-61.44v0h-389.12c-30.72 0-61.44 30.72-61.44 61.44s30.72 61.44 61.44 61.44v0h389.12zM517.12 765.44c40.96 0 71.68-20.48 71.68-61.44s-30.72-61.44-71.68-61.44v0h-307.2c-40.96 0-71.68 20.48-71.68 61.44s30.72 61.44 71.68 61.44v0h307.2z" />
<glyph unicode="&#xe911;" glyph-name="facebook" d="M394.24-64h168.96v512h128l25.6 158.72h-153.6v117.76c0 35.84 20.48 76.8 56.32 76.8h87.040v158.72h-107.52c-168.96-5.12-199.68-112.64-204.8-225.28v0-128h-87.040v-158.72h87.040v-512z" />
<glyph unicode="&#xe912;" glyph-name="twitter" d="M322.56 12.8c384 0 599.040 332.8 599.040 624.64 0 10.24 0 20.48 0 30.72 40.96 30.72 76.8 71.68 102.4 112.64-35.84-15.36-76.8-30.72-122.88-35.84 46.080 25.6 76.8 71.68 92.16 122.88-40.96-25.6-87.040-40.96-133.12-51.2-81.92 87.040-215.040 92.16-296.96 10.24-56.32-51.2-76.8-133.12-61.44-209.92-168.96 10.24-327.68 92.16-435.2 230.4-56.32-102.4-25.6-225.28 66.56-291.84-35.84 0-66.56 10.24-97.28 25.6v-5.12c0-102.4 71.68-194.56 168.96-215.040-30.72-10.24-61.44-10.24-97.28-5.12 25.6-87.040 107.52-148.48 194.56-153.6-76.8-61.44-163.84-92.16-261.12-92.16-15.36 0-35.84 0-51.2 5.12 107.52-66.56 220.16-102.4 332.8-102.4z" />
<glyph unicode="&#xe913;" glyph-name="linked-in" d="M245.76 842.24c0-61.44-46.080-112.64-122.88-112.64v0c-71.68 0-122.88 51.2-122.88 112.64 0 66.56 51.2 112.64 122.88 112.64 76.8 0 122.88-51.2 122.88-112.64zM15.36-23.040h220.16v660.48h-220.16v-660.48zM773.12 652.8c-117.76 0-168.96-61.44-199.68-107.52v0 0c0 0 0 0 0 0v92.16h-220.16c5.12-61.44 0-660.48 0-660.48h220.16v368.64c0 20.48 0 40.96 5.12 51.2 15.36 40.96 51.2 81.92 112.64 81.92 81.92 0 112.64-61.44 112.64-148.48v-353.28h220.16v378.88c0 199.68-107.52 296.96-250.88 296.96z" />
<glyph unicode="&#xe914;" glyph-name="youtube" d="M701.44 832c107.52 0 148.48-10.24 189.44-35.84 40.96-20.48 76.8-56.32 97.28-97.28s35.84-87.040 35.84-189.44v-128c0-107.52-10.24-148.48-35.84-189.44-20.48-40.96-56.32-76.8-97.28-97.28s-87.040-35.84-189.44-35.84h-384c-107.52 0-148.48 10.24-189.44 35.84-40.96 20.48-76.8 56.32-97.28 97.28s-35.84 87.040-35.84 189.44v128c0 107.52 10.24 148.48 35.84 189.44 20.48 40.96 56.32 76.8 97.28 97.28s87.040 35.84 189.44 35.84h384zM465.92 586.24c-10.24 5.12-20.48 5.12-30.72 0s-15.36-15.36-15.36-25.6v0-220.16c0-10.24 5.12-20.48 15.36-25.6s20.48-5.12 30.72 0v0l215.040 107.52c10.24 5.12 15.36 15.36 15.36 30.72 0 10.24-5.12 25.6-15.36 30.72v0l-102.4 51.2-112.64 51.2z" />
<glyph unicode="&#xe915;" glyph-name="google" horiz-adv-x="3123" d="M409.6 166.4c92.16 0 153.6 15.36 215.040 61.44 30.72 15.36 61.44 61.44 76.8 76.8 30.72 30.72 46.080 76.8 61.44 138.24 0 15.36 0 30.72 0 76.8 0 30.72 0 61.44 0 61.44v20.48h-353.28v-107.52h245.76c0-15.36-15.36-61.44-30.72-76.8 0-30.72 0-46.080-30.72-61.44-30.72-30.72-61.44-61.44-122.88-76.8-15.36 0-30.72 0-61.44 0s-46.080 0-61.44 0c-66.56 15.36-112.64 46.080-143.36 76.8s-30.72 46.080-46.080 76.8c-30.72 46.080-30.72 92.16-30.72 138.24s15.36 76.8 30.72 122.88c46.080 92.16 138.24 153.6 245.76 153.6 61.44 0 122.88-15.36 168.96-61.44l15.36-15.36c0 0 15.36 15.36 30.72 30.72l30.72 30.72-15.36 15.36c15.36 30.72-15.36 46.080-46.080 61.44s-76.8 30.72-122.88 46.080c-30.72 0-92.16 0-107.52 0-122.88-15.36-215.040-76.8-296.96-168.96-30.72-46.080-61.44-107.52-61.44-168.96 0-30.72 0-61.44 0-92.16 15.36-153.6 122.88-281.6 281.6-327.68 35.84-30.72 81.92-30.72 128-30.72zM2472.96 181.76h122.88c0 0 0 168.96 0 373.76v373.76h-107.52v-747.52h-15.36zM3046.4 217.6c15.36 15.36 46.080 46.080 61.44 61.44 0 0 0 15.36-46.080 30.72-30.72 15.36-46.080 30.72-46.080 30.72v0c-15.36-30.72-46.080-46.080-76.8-61.44-15.36 0-15.36 0-46.080 0s-30.72 0-46.080 0c-30.72 15.36-46.080 30.72-61.44 61.44v15.36c0 0 76.8 30.72 168.96 76.8l168.96 76.8v15.36c-46.080 122.88-138.24 199.68-266.24 168.96-15.36 0-30.72 0-46.080-15.36-76.8-30.72-138.24-92.16-153.6-199.68 0-30.72 0-92.16 0-122.88 15.36-76.8 76.8-138.24 138.24-168.96 81.92-35.84 174.080-20.48 250.88 30.72zM1198.080 202.24c61.44 30.72 92.16 92.16 107.52 153.6 15.36 30.72 15.36 76.8 0 107.52-15.36 122.88-122.88 199.68-245.76 215.040-15.36 0-30.72 0-46.080 0-30.72 0-76.8-15.36-92.16-30.72-30.72-15.36-61.44-46.080-76.8-61.44s-30.72-61.44-46.080-92.16c0-15.36 0-30.72 0-61.44v-15.36c0-46.080 0-46.080 0-61.44 15.36-61.44 46.080-107.52 107.52-138.24 46.080-30.72 76.8-46.080 138.24-46.080 61.44-5.12 107.52 10.24 153.6 30.72zM2329.6-2.56c30.72 30.72 46.080 76.8 61.44 138.24 0 15.36 0 46.080 0 281.6v245.76h-107.52v-15.36c0-15.36 0-15.36 0-15.36s-15.36 0-15.36 15.36-46.080 30.72-61.44 30.72c-15.36 0-61.44 0-92.16 0-92.16-15.36-168.96-92.16-199.68-199.68-15.36-46.080 0-107.52 15.36-153.6 15.36-61.44 61.44-107.52 122.88-138.24 76.8-46.080 168.96-30.72 230.4 15.36l15.36 15.36c0-15.36 0-61.44 0-76.8-15.36-51.2-46.080-81.92-92.16-97.28-15.36 0-46.080 0-61.44 0-30.72 0-61.44 30.72-92.16 61.44l-15.36 15.36-46.080-15.36c-30.72-15.36-46.080-15.36-46.080-15.36s0 0 0-15.36c30.72-61.44 76.8-107.52 138.24-122.88 92.16-30.72 199.68-15.36 245.76 46.080zM1679.36 166.4c107.52 30.72 184.32 122.88 184.32 230.4 0 76.8-15.36 138.24-76.8 199.68-30.72 30.72-76.8 61.44-122.88 61.44-15.36 0-61.44 0-92.16 0-92.16-15.36-168.96-76.8-199.68-153.6-15.36-30.72-15.36-61.44-15.36-107.52s15.36-76.8 30.72-107.52c30.72-76.8 92.16-122.88 184.32-138.24 30.72 15.36 92.16 15.36 107.52 15.36zM2749.44 432.64c0 0 0 15.36 0 46.080s15.36 46.080 30.72 61.44 61.44 46.080 92.16 46.080c15.36 0 30.72 0 30.72 0 15.36 0 46.080-15.36 46.080-30.72 0 0 15.36-15.36 0-15.36 20.48-15.36-199.68-107.52-199.68-107.52zM1617.92 263.68c-46.080 0-61.44 15.36-92.16 46.080-15.36 15.36-15.36 30.72-30.72 30.72-30.72 61.44-15.36 138.24 30.72 184.32s92.16 46.080 138.24 30.72c61.44-15.36 92.16-76.8 92.16-153.6 0-30.72 0-46.080-15.36-76.8-15.36-15.36-15.36-30.72-30.72-46.080-30.72 0-61.44-15.36-92.16-15.36zM1029.12 279.040c-30.72 15.36-30.72 15.36-61.44 30.72-30.72 30.72-46.080 61.44-46.080 107.52s30.72 107.52 61.44 138.24c15.36 15.36 30.72 15.36 61.44 30.72 15.36 0 46.080 0 61.44 0 30.72-15.36 61.44-46.080 92.16-76.8 15.36-30.72 15.36-46.080 15.36-76.8 0-61.44-46.080-122.88-107.52-138.24-15.36-30.72-61.44-30.72-76.8-15.36zM2068.48 309.76c-30.72 30.72-46.080 61.44-46.080 107.52 0 76.8 46.080 138.24 122.88 153.6 15.36 0 46.080 0 61.44 0 30.72-15.36 61.44-30.72 76.8-76.8 30.72-46.080 30.72-107.52 0-153.6-46.080-76.8-138.24-92.16-215.040-30.72z" />
<glyph unicode="&#xe916;" glyph-name="menu" d="M0 104.96h1024v112.64h-1024v-112.64zM0 391.68h1024v112.64h-1024v-112.64zM0 791.040v-112.64h1024v112.64h-1024z" />
</font>
</defs>
</svg>
